Archive for the *DVD Category

V/A – Summer Slaughter (2007) [DVD5]

Posted in *DVD, -Crossover, -Death Metal, -Deathcore, -Hardcore Metal, -Technical Death Metal, V/A Summer Slaughter on 22 junio, 2011 by Andreé

*** AUDIO INFO ***
SampleRate(Sample/sec) : 48000
BitRate(Bit/sample) : 16
Channels : 2
KBitRate(KBit/sec) : 0
English,AC3 48000Hz 16bits 2 channel(s)
*** VIDEO INFO ***
Angle:01/01. 720×480 60Hz 16:9
Time Play: 01:36:45

SetList:

Necrophagist
*The Stillborn One
*Ignominious And Pale
*Marco Minneman Drum Solo

Decapitated
*A Poem About An Old Man

As Blood Runs Black
*Beneath The Surface
*My Fear Have Become Fobias

The Faceless
*Ghost Of A Stranger
*An Autopsy

Beneath The Massacre
*Nevermore
*The System’s Failure

Ion Dissonance
*Cleansed By Silence
*The Surge

Cattle Decapitation
*Unintelligent Desing
*KBK

Celphatic Carnage
*Counting The Days
*Observer To The Obliteration Of The Planet Earth

DVD EXTRAS
Photo Gallery
*Celphatic Carnage
-Tour Diary
-Metal Injection Interview
-DVD Credits

Descarga/Download
Son 7 Partres de 600mb y 1 de 240mb
1.http://www.megaupload.com/?d=POFPNJL0
2.http://www.megaupload.com/?d=10CNV7AD
3.http://www.megaupload.com/?d=ZDI9I6JE
4.http://www.megaupload.com/?d=MMRNK0PB
5.http://www.megaupload.com/?d=W1CH90PQ
6.http://www.megaupload.com/?d=6B7LZ4YK
7.http://www.megaupload.com/?d=SP85W3UA
8.http://www.megaupload.com/?d=1LLXB6OB

Contraseña/Password:  sonidoszero

2X – En Pie De Guerra (2008) [DVD5] Exclusividad

Posted in *DVD, *Videos, +Chile, -Rap Metal, -Rapcore, 2X on 22 mayo, 2011 by Andreé
General
Complete name : C:\Documents and Settings\Cristian\Escritorio\2X – En Pié De Guerra DVD5\VIDEO_TS\VTS_01_1.VOB
Format : MPEG-PS
File size : 2.544.476.160 bytes
Duration : 65 MIN
Overall bit rate : 5 705 Kbps

Video
ID : 224 (0xE0)
Format : MPEG Video
Format version : Version 2
Format profile : Main@Main
Format settings, BVOP : Yes
Format settings, Matrix : Default
Format settings, GOP : M=3, N=15
Duration : 2mn 52s
Bit rate mode : Variable
Bit rate : 4 056 Kbps
Nominal bit rate : 7 000 Kbps
Width : 720 pixels
Height : 480 pixels
Display aspect ratio : 4:3
Frame rate : 29.970 fps
Standard : NTSC
Color space : YUV
Chroma subsampling : 4:2:0
Bit depth : 8 bits
Scan type : Interlaced
Scan order : Bottom Field First
Bits/(Pixel*Frame) : 0.392
Stream size : 83.4 MiB (71%)

Audio
ID : 160 (0xA0)
Format : PCM
Format settings, Endianness : Big
Format settings, Sign : Signed
Muxing mode : DVD-Video
Duration : 2mn 52s
Bit rate mode : Constant
Bit rate : 1 536 Kbps
Channel(s) : 2 channels
Channel positions : Front: L R
Sampling rate : 48.0 KHz
Bit depth : 16 bits
Stream size : 31.6 MiB (27%)

Tracklist
Me Dio PAJA poner tracklist XD

Descarga
Son 5 Partes Por MegaUpload
Todas menos la última de 600 MB
1. http://www.megaupload.com/?d=KY2G9FFF
2. http://www.megaupload.com/?d=1YC9CSG7
3. http://www.megaupload.com/?d=EUJFW2P3
4. http://www.megaupload.com/?d=KFOQ4L5H
5. http://www.megaupload.com/?d=KKFV7MWJ
Contraseña: sonidoszero
PD: CHÚPENLA (: